设为首页收藏本站中国民歌网

民歌中国论坛

 找回密码
 立即注册

QQ登录

只需一步,快速开始

查看: 855|回复: 1

大哲 - 闯码头b.mp4

[复制链接]
发表于 2018-5-25 17:50:41 | 显示全部楼层 |阅读模式
General
Complete name                  : 大哲 - 闯码头b.mp4
Format                         : MPEG-4
Format profile                 : Base Media
Codec ID                       : isom (isom/avc1)
File size                      : 103 MiB
Duration                       : 3 min 50 s
Overall bit rate mode          : Variable
Overall bit rate               : 3 747 kb/s

Video
ID                             : 1
Format                         : AVC
Format/Info                    : Advanced Video Codec
Format profile                 : [email protected]
Format settings, CABAC         : Yes
Format settings, ReFrames      : 5 frames
Codec ID                       : avc1
Codec ID/Info                  : Advanced Video Coding
Duration                       : 3 min 50 s
Bit rate                       : 3 232 kb/s
Maximum bit rate               : 5 303 kb/s
Width                          : 1 920 pixels
Height                         : 1 080 pixels
Display aspect ratio           : 16:9
Frame rate mode                : Constant
Frame rate                     : 25.000 FPS
Color space                    : YUV
Chroma subsampling             : 4:2:0
Bit depth                      : 8 bits
Scan type                      : Progressive
Bits/(Pixel*Frame)             : 0.062
Stream size                    : 88.7 MiB (86%)
Writing library                : x264 core 155 r2901 7d0ff22
Color range                    : Limited
Matrix coefficients            : BT.709


Audio
ID                             : 2
Format                         : AAC
Format/Info                    : Advanced Audio Codec
Format profile                 : LC
Codec ID                       : 40
Duration                       : 3 min 50 s
Bit rate mode                  : Variable
Bit rate                       : 512 kb/s
Maximum bit rate               : 524 kb/s
Channel(s)                     : 2 channels
Channel positions              : Front: L R
Sampling rate                  : 48.0 kHz
Frame rate                     : 46.875 FPS (1024 spf)
Compression mode               : Lossy
Stream size                    : 14.1 MiB (14%)
Language                       : English



20180525174747.png
20180525174801.png
20180525174817.png
20180525174832.png
20180525174848.png
20180525174918.png
微信扫一扫关注
 楼主| 发表于 2018-5-25 18:17:31 | 显示全部楼层
本帖最后由 wcb1969 于 2018-5-25 18:35 编辑

非原版下载

链接: https://pan.baidu.com/s/1aY9FSibujLEJDvLMgjUxdw


密码: rdf7

您需要登录后才可以回帖 登录 | 立即注册

本版积分规则

手机版|小黑屋|民歌中国论坛 ( 苏ICP备13057199号-1  

GMT+8, 2018-6-24 16:49 , Processed in 0.247472 second(s), 26 queries , Gzip On.

Powered by Discuz! X3.2 Licensed

© 2001-2013 Comsenz Inc.

快速回复 返回顶部 返回列表