设为首页收藏本站中国民歌网

民歌中国论坛

 找回密码
 立即注册

QQ登录

只需一步,快速开始

查看: 1584|回复: 59

[高清] 2019中央广播电视总台春节联欢晚会.2160p.HC.CCTV-4K.UHDTV.HEVC.HDR.DD5.1-FLTTH

  [复制链接]
发表于 2019-2-15 12:20:32 | 显示全部楼层 |阅读模式
本帖最后由 走走 于 2019-2-15 12:21 编辑

2019中央广播电视总台春节联欢晚会【4K重播版】.2160p.HC.cctv-4K.UHDTV.HEVC.HDR.DD5.1-FLTTH.ts 68.02G

资源特色:
● 完整的HDR数据 + BT.2020色域
● 完整的AC3 5.1环绕声音轨
● 完整的相声、小品字幕
画面右上角无“直播”图标
● 正片播放无广告
● 采用自主研发的无损剪辑技术
● 下载后浏览不卡机,杜绝如M-Team片源下载后卡机问题。




下载地址:
游客,如果您要查看本帖隐藏内容请回复


解压密码:6688


12_148185_c30fb4cea92c27a.jpg

GeneralID                                       : 217 (0xD9)Complete name                            : 2019中央广播电视总台春节联欢晚会.REPEAT.2160p.HC.CCTV-4K.UHDTV.HEVC.HDR.DD5.1-FLTTH.tsFormat                                   : MPEG-TSFile size                                : 68.0 GiBDuration                                 : 4 h 51 minOverall bit rate mode                    : VariableOverall bit rate                         : 33.4 Mb/s  VideoID                                       : 6571 (0x19AB)Menu ID                                  : 657 (0x291)Format                                   : HEVCFormat/Info                              : High Efficiency Video CodingFormat profile                           : Main@L5@HighCodec ID                                 : 36Duration                                 : 21 h 42 minBit rate                                 : 31.3 Mb/sWidth                                    : 3 840 pixelsHeight                                   : 2 160 pixelsDisplay aspect ratio                     : 16:9Frame rate                               : 50.000 FPSStandard                                 : ComponentColor space                              : YUVChroma subsampling                       : 4:2:0 (Type 0)Bit depth                                : 8 bitsBits/(Pixel*Frame)                       : 0.075Stream size                              : 284 GiBColor range                              : LimitedColor primaries                          : BT.2020Transfer characteristics                 : HLGMatrix coefficients                      : BT.2020 non-constant  AudioID                                       : 6572 (0x19AC)Menu ID                                  : 657 (0x291)Format                                   : AC-3Format/Info                              : Audio Coding 3Commercial name                          : Dolby DigitalCodec ID                                 : 6Duration                                 : 4 h 51 minBit rate mode                            : ConstantBit rate                                 : 448 kb/sChannel(s)                               : 6 channelsChannel layout                           : L R C LFE Ls RsSampling rate                            : 48.0 kHzFrame rate                               : 31.250 FPS (1536 SPF)Bit depth                                : 16 bitsCompression mode                         : LossyDelay relative to video                  : -188 msStream size                              : 936 MiB (1%)Service kind                             : Complete Main  MenuID                                       : 6570 (0x19AA)Menu ID                                  : 657 (0x291)Duration                                 : 4 h 51 minList                                     : 6571 (0x19AB) (HEVC) / 6572 (0x19AC) (AC-3)
微信扫一扫关注
发表于 2019-2-15 12:29:22 | 显示全部楼层
谢谢版主分享。我一直在等待这个资源。
发表于 2019-2-15 13:31:24 | 显示全部楼层
谢谢版主分享
发表于 2019-2-15 13:49:17 | 显示全部楼层
这个版本好,感谢楼主分享!
发表于 2019-2-15 13:54:00 | 显示全部楼层
看一看这个版本,是不是体积特别大啊
发表于 2019-2-15 13:59:51 | 显示全部楼层
特地提到了MT资源的问题!太棒了!
发表于 2019-2-15 16:03:44 | 显示全部楼层
感谢分享好资源
发表于 2019-2-15 16:36:43 | 显示全部楼层
果然系统读文件顺畅!正常了。没注意是重播版,我说怎么起始广告和MT那版不一样呢。色彩恍惚觉得略淡了一点点,但与MT那个差别是毫厘之间。几乎没差别。
某软件下比官方客户端快的无数量级可比。虽然多次报错停止和中断,但自主再开始还是很快进行了。没用一小时以上。
您需要登录后才可以回帖 登录 | 立即注册

本版积分规则

手机版|小黑屋|民歌中国论坛 ( 苏ICP备13057199号-1  

GMT+8, 2019-9-16 14:44 , Processed in 0.418685 second(s), 26 queries , Gzip On.

Powered by Discuz! X3.2 Licensed

© 2001-2013 Comsenz Inc.

快速回复 返回顶部 返回列表