设为首页收藏本站中国民歌网

民歌中国论坛

 找回密码
 立即注册

QQ登录

只需一步,快速开始

查看: 243|回复: 35

[高清] 2019中央广播电视总台春节联欢晚会.20190204.1080i.HDTV.H.264.DD5.1-FLTTH

  [复制链接]
发表于 2019-2-12 10:53:46 | 显示全部楼层 |阅读模式
2019中央广播电视总台春节联欢晚会.20190204.1080i.HDTV.H.264.DD5.1-FLTTH.ts 16.92G
下载地址:
游客,如果您要查看本帖隐藏内容请回复


解压密码:666



SS_00001 (1).jpg


  • General
  • ID                                       : 1 (0x1)
  • Complete name                            : 2019中央广播电视总台春节联欢晚会.20190204.1080i.cctv1.HDTV.H.264.DD5.1-FLTTH.ts
  • Format                                   : MPEG-TS
  • File size                                : 16.9 GiB
  • Duration                                 : 4 h 47 min
  • Overall bit rate mode                    : Variable
  • Overall bit rate                         : 8 414 kb/s
  • Video
  • ID                                       : 256 (0x100)
  • Menu ID                                  : 1 (0x1)
  • Format                                   : AVC
  • Format/Info                              : Advanced Video Codec
  • Format profile                           : High@L4
  • Format settings                          : CABAC / 2 Ref Frames
  • Format settings, CABAC                   : Yes
  • Format settings, RefFrames               : 2 frames
  • Format settings, GOP                     : M=3, N=12
  • Codec ID                                 : 27
  • Duration                                 : 4 h 47 min
  • Bit rate                                 : 7 546 kb/s
  • Width                                    : 1 920 pixels
  • Height                                   : 1 080 pixels
  • Display aspect ratio                     : 16:9
  • Frame rate                               : 25.000 FPS
  • Color space                              : YUV
  • Chroma subsampling                       : 4:2:0
  • Bit depth                                : 8 bits
  • Scan type                                : Interlaced
  • Scan type, store method                  : Separated fields
  • Scan order                               : Top Field First
  • Bits/(Pixel*Frame)                       : 0.146
  • Stream size                              : 15.2 GiB (90%)
  • Audio
  • ID                                       : 257 (0x101)
  • Menu ID                                  : 1 (0x1)
  • Format                                   : AC-3
  • Format/Info                              : Audio Coding 3
  • Commercial name                          : Dolby Digital
  • Codec ID                                 : 129
  • Duration                                 : 4 h 47 min
  • Bit rate mode                            : Constant
  • Bit rate                                 : 448 kb/s
  • Channel(s)                               : 6 channels
  • Channel layout                           : L R C LFE Ls Rs
  • Sampling rate                            : 48.0 kHz
  • Frame rate                               : 31.250 FPS (1536 SPF)
  • Bit depth                                : 16 bits
  • Compression mode                         : Lossy
  • Delay relative to video                  : -280 ms
  • Stream size                              : 923 MiB (5%)
  • Language                                 : English
  • Service kind                             : Complete Main
  • Menu
  • ID                                       : 4096 (0x1000)
  • Menu ID                                  : 1 (0x1)
  • Duration                                 : 4 h 47 min
  • List                                     : 256 (0x100) (AVC) / 257 (0x101) (AC-3, English)
  • Language                                 :  / English
  • Service name                             : CCTV1
  • Service provider                         : BGCTV
  • Service type                             : user defined



微信扫一扫关注
发表于 2019-2-12 12:29:45 | 显示全部楼层
2019中央广播电视总台春节联欢晚
发表于 2019-2-12 13:25:29 | 显示全部楼层
有好几个节目比较喜欢!
发表于 2019-2-12 14:56:52 | 显示全部楼层
2019中央广播电视总台春节联欢晚会
发表于 2019-2-12 15:01:04 | 显示全部楼层
2019中央广播电视总台春节联欢晚会,当晚没看到,现在得到楼主的分享,谢谢。
发表于 2019-2-12 15:18:06 | 显示全部楼层
赞赞赞,支持分享发布了!
发表于 2019-2-12 15:53:44 | 显示全部楼层
多谢楼主分享!
发表于 2019-2-12 16:02:32 | 显示全部楼层
提示: 作者被禁止或删除 内容自动屏蔽
您需要登录后才可以回帖 登录 | 立即注册

本版积分规则

手机版|小黑屋|民歌中国论坛 ( 苏ICP备13057199号-1  

GMT+8, 2019-2-21 14:11 , Processed in 0.145918 second(s), 26 queries , Gzip On.

Powered by Discuz! X3.2 Licensed

© 2001-2013 Comsenz Inc.

快速回复 返回顶部 返回列表