设为首页收藏本站中国民歌网

民歌中国论坛

 找回密码
 立即注册

QQ登录

只需一步,快速开始

查看: 131|回复: 3

[大陆] 沈世爱 - 一万个伤不起.mp4/1080p

[复制链接]
发表于 2019-1-11 05:15:05 | 显示全部楼层 |阅读模式
General
Complete name                  : 沈世爱 - 一万个伤不起.mp4
Format                         : MPEG-4
Format profile                 : Base Media
Codec ID                       : isom (isom/iso2/mp41)
File size                      : 79.87 MiB
Duration                       : 3 min 47 s
Overall bit rate               : 2 422 kb/s

Video
ID                             : 1
Format                         : HEVC
Format/Info                    : High Efficiency Video Coding
Format profile                 : Main 10@L4@Main
Codec ID                       : hev1
Codec ID/Info                  : High Efficiency Video Coding
Duration                       : 3 min 47 s
Bit rate                       : 1 969 kb/s
Width                          : 1 920 pixels
Height                         : 1 080 pixels
Display aspect ratio           : 16:9
Frame rate mode                : Constant
Frame rate                     : 25.000 FPS
Color space                    : YUV
Chroma subsampling             : 4:2:0
Bit depth                      : 10 bits
Scan type                      : Progressive
Bits/(Pixel*Frame)             : 0.038
Stream size                    : 67.77 MiB (81%)
Audio
ID                             : 2
Format                         : AAC
Format/Info                    : Advanced Audio Codec
Format profile                 : LC
Codec ID                       : mp4a-40-2
Duration                       : 3 min 47 s
Bit rate mode                  : Constant
Bit rate                       : 448 kb/s
Channel(s)                     : 2 channels
Channel positions              : Front: L R
Sampling rate                  : 48.0 kHz
Frame rate                     : 46.875 FPS (1024 SPF)
Compression mode               : Lossy
Stream size                    : 12.1 MiB (19%)
Default                        : Yes
Alternate group                : 1



2019-01-11_051050.png
2019-01-11_051122.png
2019-01-11_051135.png
2019-01-11_051144.png
2019-01-11_051153.png
微信扫一扫关注
 楼主| 发表于 2019-1-11 05:16:45 | 显示全部楼层
    词曲:周律
  演唱:沈世爱
  编曲:陈冠锋
  混音:阿ken
  音乐总监:基地小虎


    一万个伤伤伤不起
  我不想重演爱情的悲剧
  所谓的华丽甜言和蜜语
  爱到最后是逢场作戏
  一万个伤伤伤不起
  花花世界谁是谁的唯一
  现实红尘中欲望在叛逆
  只不过是玩玩而已
  天空飘着冷冷的雨
  是不是老天它在哭泣
  失去的温柔残留下回忆
  为什么你要把承诺丢弃
  都说爱情像童话般美丽
  我却变成了你手中的棋
  被你俘虏灵魂剥夺身体
  遍体鳞伤的我该怎么继续
  一万个伤伤伤不起
  我不想重演爱情的悲剧
  所谓的华丽甜言和蜜语
  爱到最后是逢场作戏
  一万个伤伤伤不起
  花花世界谁是谁的唯一
  现实红尘中欲望在叛逆

  只不过是玩玩而已

 楼主| 发表于 2019-1-11 05:17:28 | 显示全部楼层
https://pan.baidu.com/s/1WPxvUT0MQBsdmoXi4ssOsQ
 楼主| 发表于 2019-1-11 05:21:26 | 显示全部楼层
沈世爱 - 为爱犯贱.mp4
https://pan.baidu.com/s/1rT0RtFyxYulsiyWB4wVUiw
沈世爱 - 寂寞心扉.mp4
https://pan.baidu.com/s/1XHx_ADeGPv19-BCs7-ohFA
您需要登录后才可以回帖 登录 | 立即注册

本版积分规则

手机版|小黑屋|民歌中国论坛 ( 苏ICP备13057199号-1  

GMT+8, 2019-7-24 08:30 , Processed in 0.376909 second(s), 26 queries , Gzip On.

Powered by Discuz! X3.2 Licensed

© 2001-2013 Comsenz Inc.

快速回复 返回顶部 返回列表