设为首页收藏本站中国民歌网

民歌中国论坛

 找回密码
 立即注册

QQ登录

只需一步,快速开始

查看: 94|回复: 5

[高清] 哈琳 - 民歌中国专场 20110809/mkv/720p/1.09G/百度盘

[复制链接]
发表于 2019-1-8 15:46:48 | 显示全部楼层 |阅读模式
本节目主要内容:

节目介绍了哈琳的艺术生涯和蒙古音乐,节目欣赏了以下歌曲:
1、歌曲:《遥远的妈妈》 演唱:哈琳;
2、歌曲:《天韵摇篮曲》 演唱:哈琳;
3、歌曲:《吻你》 演唱:哈琳、宝勒;
4、歌曲:《黑小伙》 演唱:哈琳;
5、歌曲:《朋友们舞起来》 演唱:哈琳。
民歌·中国 2011年 第190期)

2019-01-08_154110.png
2019-01-08_154149.png
2019-01-08_154257.png
2019-01-08_154522.png
微信扫一扫关注
 楼主| 发表于 2019-1-8 15:48:24 | 显示全部楼层
https://pan.baidu.com/s/1Dx8HcCGhuSl26PlkS3E01A
 楼主| 发表于 2019-1-8 16:56:17 | 显示全部楼层
General
Unique ID                      : 186058620823513034207338637504971767406 (0x8BF99640C08D05A7A6D535C4A3937E6E)
Complete name                  : 哈琳 - 民歌中国专场20110809.mkv
Format                         : Matroska
Format version                 : Version 2
File size                      : 1.09 GiB
Duration                       : 29 min 59 s
Overall bit rate               : 5 199 kb/s
Encoded date                   : UTC 2011-10-07 13:08:58
Writing application            : mkvmerge v2.9.9 ('Tutu') built on Nov 25 2009 21:13:32
Writing library                : libebml v0.7.9 + libmatroska v0.8.1


Video
ID                             : 1
Format                         : AVC
Format/Info                    : Advanced Video Codec
Format profile                 : High@L4.1
Format settings                : CABAC / 5 Ref Frames
Format settings, CABAC         : Yes
Format settings, ReFrames      : 5 frames
Codec ID                       : V_MPEG4/ISO/AVC
Duration                       : 29 min 59 s
Bit rate                       : 4 749 kb/s
Width                          : 1 280 pixels
Height                         : 720 pixels
Display aspect ratio           : 16:9
Frame rate mode                : Constant
Frame rate                     : 25.000 FPS
Color space                    : YUV
Chroma subsampling             : 4:2:0
Bit depth                      : 8 bits
Scan type                      : Progressive
Bits/(Pixel*Frame)             : 0.206
Stream size                    : 997 MiB (89%)
Writing library                : x264 core 114 r1924 08d04a4

Audio
ID                             : 2
Format                         : AC-3
Format/Info                    : Audio Coding 3
Codec ID                       : A_AC3
Duration                       : 29 min 59 s
Bit rate mode                  : Constant
Bit rate                       : 448 kb/s
Channel(s)                     : 2 channels
Channel positions              : Front: L R
Sampling rate                  : 48.0 kHz
Frame rate                     : 31.250 FPS (1536 SPF)
Bit depth                      : 16 bits
Compression mode               : Lossy
Stream size                    : 96.1 MiB (9%)
Service kind                   : Complete Main
Default                        : Yes
Forced                         : No


发表于 2019-1-9 12:36:11 | 显示全部楼层
节目介绍了哈琳的艺术生涯和蒙古音乐,节目欣赏了以下歌曲:
1、歌曲:《遥远的妈妈》 演唱:哈琳;
2、歌曲:《天韵摇篮曲》 演唱:哈琳;
3、歌曲:《吻你》 演唱:哈琳、宝勒;
4、歌曲:《黑小伙》 演唱:哈琳;
5、歌曲:《朋友们舞起来》 演唱:哈琳。
谢谢楼主,这些都是很好的经典歌曲。
发表于 2019-1-9 13:15:47 | 显示全部楼层
谢谢楼主,这些都是很好的经典歌曲。
发表于 2 小时前 | 显示全部楼层
链接不上了。
您需要登录后才可以回帖 登录 | 立即注册

本版积分规则

手机版|小黑屋|民歌中国论坛 ( 苏ICP备13057199号-1  

GMT+8, 2019-1-18 13:57 , Processed in 0.146609 second(s), 26 queries , Gzip On.

Powered by Discuz! X3.2 Licensed

© 2001-2013 Comsenz Inc.

快速回复 返回顶部 返回列表