设为首页收藏本站中国民歌网

民歌中国论坛

 找回密码
 立即注册

QQ登录

只需一步,快速开始

查看: 176|回复: 6

[高清] 于文华 - 非常星发布 20140430/ts/1080i/5.38G/百度盘

[复制链接]
发表于 2019-1-6 01:39:00 | 显示全部楼层 |阅读模式
https://pan.baidu.com/s/1Cr0k20c5oQ5PZvW0NiXRYg


本期节目主要内容:
1、歌曲《雨吻花》 演唱:于文华;
2、评剧《刘巧儿》选段 演唱:于文华;
3、歌曲《纤夫的爱》 演唱:于文华 尹相杰;
4、歌曲《沂蒙山小调》 演唱:于文华 朱之文;
5、歌曲《同喜同喜》 演唱:于文华 尹相杰;
6、歌曲《兰亭序》 演唱:于文华。
(《非常6+1》 20140430 非常星发布)



微信扫一扫关注
 楼主| 发表于 2019-1-6 01:46:08 | 显示全部楼层
General
ID                             : 1 (0x1)
Complete name                  : 于文华 - 非常星发布 20140430.ts
Format                         : MPEG-TS
File size                      : 5.38 GiB
Duration                       : 70 min 25 s
Overall bit rate mode          : Variable
Overall bit rate               : 10.9 Mb/s


Video
ID                             : 256 (0x100)
Menu ID                        : 1 (0x1)
Format                         : MPEG Video
Format version                 : Version 2
Format profile                 : Main@High
Format settings, BVOP          : No
Format settings, Matrix        : Default
Format settings, GOP           : N=25
Codec ID                       : 2
Duration                       : 70 min 25 s
Bit rate mode                  : Variable
Bit rate                       : 10.3 Mb/s
Width                          : 1 920 pixels
Height                         : 1 080 pixels
Display aspect ratio           : 16:9
Frame rate                     : 25.000 FPS
Color space                    : YUV
Chroma subsampling             : 4:2:0
Bit depth                      : 8 bits
Scan type                      : Progressive
Compression mode               : Lossy
Bits/(Pixel*Frame)             : 0.198
Time code of first frame       : 00:06:18:17
Time code source               : Group of pictures header
GOP, Open/Closed               : Open
Stream size                    : 5.06 GiB (94%)


Audio
ID                             : 257 (0x101)
Menu ID                        : 1 (0x1)
Format                         : MPEG Audio
Format version                 : Version 1
Format profile                 : Layer 3
Format settings                : Joint stereo / MS Stereo
Codec ID                       : 3
Duration                       : 70 min 25 s
Bit rate mode                  : Constant
Bit rate                       : 128 kb/s
Channel(s)                     : 2 channels
Sampling rate                  : 48.0 kHz
Frame rate                     : 41.667 FPS (1152 SPF)
Compression mode               : Lossy
Delay relative to video        : -680 ms
Stream size                    : 65 MiB (1%)
Writing library                : LAME


Menu
ID                             : 4096 (0x1000)
Menu ID                        : 1 (0x1)
Duration                       : 70 min 25 s
List                           : 256 (0x100) (MPEG Video) / 257 (0x101) (MPEG Audio)
Service name                   : Service01
Service provider               : FFmpeg
Service type                   : digital television


2019-01-06_014153.png
2019-01-06_014205.png
2019-01-06_014232.png
2019-01-06_014259.png
发表于 2019-1-6 12:36:21 | 显示全部楼层
于文华的评剧唱的很好
发表于 2019-1-6 15:23:58 | 显示全部楼层
经典,谢谢楼主分享!
发表于 2019-1-6 18:15:03 | 显示全部楼层
感谢楼主啊
发表于 2019-1-6 19:10:13 | 显示全部楼层
曾经非常火的演员
发表于 2019-1-7 11:22:44 | 显示全部楼层
谢谢分享精彩音乐!
您需要登录后才可以回帖 登录 | 立即注册

本版积分规则

手机版|小黑屋|民歌中国论坛 ( 苏ICP备13057199号-1  

GMT+8, 2019-3-27 08:50 , Processed in 0.138169 second(s), 26 queries , Gzip On.

Powered by Discuz! X3.2 Licensed

© 2001-2013 Comsenz Inc.

快速回复 返回顶部 返回列表