设为首页收藏本站中国民歌网

民歌中国论坛

 找回密码
 立即注册

QQ登录

只需一步,快速开始

查看: 745|回复: 61

[高清] 央视4K频道 张也 - 祖国你好 欢声笑语迎国庆 4K 2160p HEVC.ts

  [复制链接]
发表于 2018-10-4 16:52:19 | 显示全部楼层 |阅读模式
General
ID                             : 1 (0x1)
Format                         : MPEG-TS
File size                      : 1.01 GiB
Duration                       : 4 min 14 s
Overall bit rate mode          : Variable
Overall bit rate               : 34.1 Mb/s

Video
ID                             : 256 (0x100)
Menu ID                        : 1 (0x1)
Format                         : HEVC
Format/Info                    : High Efficiency Video Coding
Format profile                 : Main [email protected]@High
Codec ID                       : 36
Duration                       : 4 min 14 s
Bit rate                       : 32.2 Mb/s
Width                          : 3 840 pixels
Height                         : 2 160 pixels
Display aspect ratio           : 16:9
Frame rate                     : 50.000 FPS
Standard                       : Component
Color space                    : YUV
Chroma subsampling             : 4:2:0 (Type 0)
Bit depth                      : 10 bits
Bits/(Pixel*Frame)             : 0.078
Stream size                    : 976 MiB (94%)
Color range                    : Limited
Color primaries                : BT.2020
Transfer characteristics       : HLG
Matrix coefficients            : BT.2020 non-constant

Audio #1
ID                             : 257 (0x101)
Menu ID                        : 1 (0x1)
Format                         : MPEG Audio
Format version                 : Version 1
Format profile                 : Layer 2
Codec ID                       : 3
Duration                       : 4 min 15 s
Bit rate mode                  : Constant
Bit rate                       : 128 kb/s
Channel(s)                     : 2 channels
Sampling rate                  : 48.0 kHz
Compression mode               : Lossy
Delay relative to video        : -339 ms
Stream size                    : 3.89 MiB (0%)
827155dfly1fvwa47itdkj20rm0q67fz.jpg

游客,如果您要查看本帖隐藏内容请回复

点评

难得的4K民歌资源,你是怎么向博主获取的?  发表于 2018-10-5 21:18
微信扫一扫关注
发表于 2018-10-4 16:56:38 | 显示全部楼层
谢谢分享,辛苦了!
发表于 2018-10-4 18:32:14 | 显示全部楼层
多谢分享好的4k视频
发表于 2018-10-4 18:55:18 | 显示全部楼层
支持好资源!!!
发表于 2018-10-4 19:01:31 | 显示全部楼层
很喜欢的一首歌,感谢分享。
发表于 2018-10-4 19:05:40 | 显示全部楼层
非常喜欢   谢谢分享  辛苦啦!!
发表于 2018-10-4 19:09:46 来自手机 | 显示全部楼层
多谢分享好的视频
发表于 2018-10-4 21:00:16 | 显示全部楼层
感受一下4k带来的视听盛宴,谢谢分享。
您需要登录后才可以回帖 登录 | 立即注册

本版积分规则

手机版|小黑屋|民歌中国论坛 ( 苏ICP备13057199号-1  

GMT+8, 2018-12-10 19:11 , Processed in 0.142953 second(s), 28 queries , Gzip On.

Powered by Discuz! X3.2 Licensed

© 2001-2013 Comsenz Inc.

快速回复 返回顶部 返回列表