设为首页收藏本站中国民歌网

民歌中国论坛

 找回密码
 立即注册

QQ登录

只需一步,快速开始

查看: 290|回复: 1

[视频] 宋祖英 - 十送红军.mp4/1080P/169M

[复制链接]
发表于 2018-5-20 09:45:24 | 显示全部楼层 |阅读模式
General
Complete name                  : 宋祖英 - 十送红军.mp4
Format                         : MPEG-4
Format profile                 : Base Media
Codec ID                       : isom (mp41/mp42)
File size                      : 169 MiB
Duration                       : 4 min 16 s
Overall bit rate mode          : Variable
Overall bit rate               : 5 518 kb/s


Video
ID                             : 1
Format                         : AVC
Format/Info                    : Advanced Video Codec
Format profile                 : High@L4
Format settings, CABAC         : Yes
Format settings, ReFrames      : 2 frames
Format settings, GOP           : M=3, N=12
Codec ID                       : avc1
Codec ID/Info                  : Advanced Video Coding
Duration                       : 4 min 16 s
Bit rate mode                  : Variable
Bit rate                       : 5 257 kb/s
Maximum bit rate               : 6 000 kb/s
Width                          : 1 920 pixels
Height                         : 1 080 pixels
Display aspect ratio           : 16:9
Frame rate mode                : Constant
Frame rate                     : 25.000 FPS
Standard                       : PAL
Color space                    : YUV
Chroma subsampling             : 4:2:0
Bit depth                      : 8 bits
Scan type                      : Progressive
Bits/(Pixel*Frame)             : 0.101
Stream size                    : 161 MiB (95%)
Language                       : English
Color range                    : Limited
Color primaries                : BT.709
Transfer characteristics       : BT.709
Matrix coefficients            : BT.709


Audio
ID                             : 2
Format                         : AAC
Format/Info                    : Advanced Audio Codec
Format profile                 : LC
Codec ID                       : 40
Duration                       : 4 min 16 s
Bit rate mode                  : Constant
Bit rate                       : 256 kb/s
Channel(s)                     : 2 channels
Channel positions              : Front: L R
Sampling rate                  : 48.0 kHz
Frame rate                     : 46.875 FPS (1024 spf)
Compression mode               : Lossy
Stream size                    : 7.83 MiB (5%)
Language                       : English



20180520094302.png
20180520094252.png
20180520094239.png
20180520094228.png
20180520094216.png
20180520094205.png
20180520094131.png
微信扫一扫关注
 楼主| 发表于 2018-5-20 10:31:17 | 显示全部楼层
本帖最后由 wcb1969 于 2018-5-22 23:17 编辑

链接: https://pan.baidu.com/s/1pwY0e4OWypQkGmbwB-WVsQ 密码: w7cm
您需要登录后才可以回帖 登录 | 立即注册

本版积分规则

手机版|小黑屋|民歌中国论坛 ( 苏ICP备13057199号-1  

GMT+8, 2019-8-24 04:30 , Processed in 0.390952 second(s), 28 queries , Gzip On.

Powered by Discuz! X3.2 Licensed

© 2001-2013 Comsenz Inc.

快速回复 返回顶部 返回列表