设为首页收藏本站中国民歌网

民歌中国论坛

 找回密码
 立即注册

QQ登录

只需一步,快速开始

查看: 172|回复: 2

[大陆] 六哲 & 陈娟儿 - 错错错.mp4/MV/1080P/73.9M

[复制链接]
发表于 2018-5-20 08:17:35 | 显示全部楼层 |阅读模式
General
Complete name                  : 六哲 & 陈娟儿 - 错错错.mp4
Format                         : MPEG-4
Format profile                 : Base Media
Codec ID                       : isom (isom/avc1)
File size                      : 73.9 MiB
Duration                       : 4 min 46 s
Overall bit rate mode          : Variable
Overall bit rate               : 2 166 kb/s

Video
ID                             : 1
Format                         : AVC
Format/Info                    : Advanced Video Codec
Format profile                 : High@L6.2
Format settings, CABAC         : Yes
Format settings, ReFrames      : 5 frames
Codec ID                       : avc1
Codec ID/Info                  : Advanced Video Coding
Duration                       : 4 min 46 s
Bit rate                       : 1 650 kb/s
Maximum bit rate               : 3 582 kb/s
Width                          : 1 920 pixels
Height                         : 1 080 pixels
Display aspect ratio           : 16:9
Frame rate mode                : Constant
Frame rate                     : 25.000 FPS
Color space                    : YUV
Chroma subsampling             : 4:2:0
Bit depth                      : 8 bits
Scan type                      : Progressive
Bits/(Pixel*Frame)             : 0.032
Stream size                    : 56.3 MiB (76%)
Writing library                : x264 core 155 r2901 7d0ff22

Audio
ID                             : 2
Format                         : AAC
Format/Info                    : Advanced Audio Codec
Format profile                 : LC
Codec ID                       : 40
Duration                       : 4 min 46 s
Bit rate mode                  : Variable
Bit rate                       : 512 kb/s
Maximum bit rate               : 524 kb/s
Channel(s)                     : 2 channels
Channel positions              : Front: L R
Sampling rate                  : 48.0 kHz
Frame rate                     : 46.875 FPS (1024 spf)
Compression mode               : Lossy
Stream size                    : 17.5 MiB (24%)
Language                       : English



20180520081407.png
20180520081439.png
20180520081502.png
20180520081521.png
微信扫一扫关注
 楼主| 发表于 2018-5-20 08:33:36 | 显示全部楼层
本帖最后由 wcb1969 于 2019-1-11 21:23 编辑

该歌曲收录于六哲2010年发行的专辑《被伤过的心还可以爱谁》中。MV导演 越南肥猪流
这首《错错错》早在2010年年底就早已成为家喻户晓的神曲,也在各电台榜单以及相关排行类网站上《错错错》人气一路彪升,从无线到网站下载以及试听突破百万为守、过千万为实。歌曲歌词
女:你总说 是我的错

  可你自己总太过自我

  争吵的时候你习惯沉默

  这样怎么能揭开迷惑

男:错错错 是我的错

  热恋的时候怎么不说

  生活的无奈我已好困惑

  你能不能不要再啰嗦

  最好沉默

男:我们曾爱过 也哭过

  好不容易 一起生活

  以为我们会度过

  艰难的时刻

男:我们曾走过 也停过

  彼此都那么的执着

  因为相信我们的爱

  从没有变过

女:心里有什么就坦白的说

  别用泪水代替诉说

男:毕竟我们都深爱过

  不想再吵个你死我活

女:你总说是我的错

  可你自己总太过自我

  争吵的时候你习惯沉默

  这样怎么能解开迷惑

男:错措错 是我的错

  热恋的时候怎么不说

  生活的无奈我已好困惑

  你能不能不要再啰嗦

  最好沉默

男:我们曾走过也停过

  彼此都那么的执着

  因为相信我们的爱从没有变过

女:心里有什么就坦白的说

  别用泪水代替诉说

男:毕竟我们都深爱过

  不想再吵个你死我活

女:你总说是我的错

  可你自己总太过自我

  争吵的时候你习惯沉默

  这样怎么能解开迷惑

男:错措错 是我的错

  热恋的时候怎么不说

  生活的无奈我已好困惑

  你能不能不要再啰嗦

  最好沉默

女:你总说是我的错

  可你自己总太过自我

  争吵的时候你习惯沉默

  这样怎么能解开迷惑

男:错措错 是我的错

  热恋的时候你怎么不说

  生活的无奈我已好困惑

  你能不能不要啰嗦

  最好沉默




百度盘下载链接:
链接: https://pan.baidu.com/s/1Q515u96PJ-kwPlIk_Nir4A 密码: ymii
 楼主| 发表于 2019-1-11 21:24:55 | 显示全部楼层
本帖最后由 wcb1969 于 2019-1-11 21:31 编辑

六哲 & 陈娟儿 - 错错错 - 2010-2011广东卫视跨年演唱会720P.mkv/130M
https://pan.baidu.com/s/1udRzG4AWN9-j_JLK7tf9Dg
2019-01-11_212754.png
2019-01-11_212815.png
2019-01-11_212839.png
2019-01-11_212850.png
您需要登录后才可以回帖 登录 | 立即注册

本版积分规则

手机版|小黑屋|民歌中国论坛 ( 苏ICP备13057199号-1  

GMT+8, 2019-7-24 08:29 , Processed in 0.377914 second(s), 26 queries , Gzip On.

Powered by Discuz! X3.2 Licensed

© 2001-2013 Comsenz Inc.

快速回复 返回顶部 返回列表