设为首页收藏本站中国民歌网

民歌中国论坛

 找回密码
 立即注册

QQ登录

只需一步,快速开始

查看: 155|回复: 1

[大陆] 六哲 - 被伤过的心还可以爱谁 2016情人节星耀湛江巨星演唱会

[复制链接]
发表于 2018-5-14 02:51:22 | 显示全部楼层 |阅读模式
本帖最后由 wcb1969 于 2018-5-14 03:05 编辑

六哲 - 被伤过的心还可以爱谁
General
Complete name           六哲 - 被伤过的心还可以爱谁b.mp4
Format                         : MPEG-4
Format profile                 : Base Media
Codec ID                       : isom (isom/iso2/avc1/mp41)
File size                      : 171 MiB
Duration                       : 4 min 39 s
Overall bit rate               : 5 141 kb/s
Writing application            : Lavf57.41.100

Video
ID                             : 1
Format                         : AVC
Format/Info                    : Advanced Video Codec
Format profile                 : High@L4
Format settings                : CABAC / 4 Ref Frames
Format settings, CABAC         : Yes
Format settings, ReFrames      : 4 frames
Codec ID                       : avc1
Codec ID/Info                  : Advanced Video Coding
Duration                       : 4 min 39 s
Bit rate                       : 4 814 kb/s
Width                          : 1 920 pixels
Height                         : 1 080 pixels
Display aspect ratio           : 16:9
Frame rate mode                : Constant
Frame rate                     : 25.000 FPS
Color space                    : YUV
Chroma subsampling             : 4:2:0
Bit depth                      : 8 bits
Scan type                      : Progressive
Bits/(Pixel*Frame)             : 0.093
Stream size                    : 160 MiB (94%)

Audio
ID                             : 2
Format                         : AAC
Format/Info                    : Advanced Audio Codec
Format profile                 : LC
Codec ID                       : mp4a-40-2
Duration                       : 4 min 39 s
Bit rate mode                  : Constant
Bit rate                       : 321 kb/s
Channel(s)                     : 2 channels
Channel positions              : Front: L R
Sampling rate                  : 48.0 kHz
Frame rate                     : 46.875 FPS (1024 SPF)
Compression mode               : Lossy
Stream size                    : 10.7 MiB (6%)
Default                        : Yes
Alternate group                : 1
链接: https://pan.baidu.com/s/1-JBmOD5P5IttVVfvSvhd6w 密码: eusc
20180514024858.png
20180514024838.png
20180514024810.png
20180514024747.png
微信扫一扫关注
 楼主| 发表于 2019-1-11 17:41:28 | 显示全部楼层
您需要登录后才可以回帖 登录 | 立即注册

本版积分规则

手机版|小黑屋|民歌中国论坛 ( 苏ICP备13057199号-1  

GMT+8, 2019-3-27 08:59 , Processed in 0.148766 second(s), 28 queries , Gzip On.

Powered by Discuz! X3.2 Licensed

© 2001-2013 Comsenz Inc.

快速回复 返回顶部 返回列表